<?xml version="1.0" standalone="no"?>
<!DOCTYPE svg PUBLIC "-//W3C//DTD SVG 1.1//EN" "http://www.w3.org/Graphics/SVG/1.1/DTD/svg11.dtd" >
<!--
2013-9-30: Created.
-->
<svg>
<metadata>
Created by iconfont
</metadata>
<defs>

<font id="iconfont" horiz-adv-x="1024" >
  <font-face
    font-family="iconfont"
    font-weight="500"
    font-stretch="normal"
    units-per-em="1024"
    ascent="896"
    descent="-128"
  />
    <missing-glyph />
    
    <glyph glyph-name="x" unicode="x" horiz-adv-x="1001"
d="M281 543q-27 -1 -53 -1h-83q-18 0 -36.5 -6t-32.5 -18.5t-23 -32t-9 -45.5v-76h912v41q0 16 -0.5 30t-0.5 18q0 13 -5 29t-17 29.5t-31.5 22.5t-49.5 9h-133v-97h-438v97zM955 310v-52q0 -23 0.5 -52t0.5 -58t-10.5 -47.5t-26 -30t-33 -16t-31.5 -4.5q-14 -1 -29.5 -0.5
t-29.5 0.5h-32l-45 128h-439l-44 -128h-29h-34q-20 0 -45 1q-25 0 -41 9.5t-25.5 23t-13.5 29.5t-4 30v167h911zM163 247q-12 0 -21 -8.5t-9 -21.5t9 -21.5t21 -8.5q13 0 22 8.5t9 21.5t-9 21.5t-22 8.5zM316 123q-8 -26 -14 -48q-5 -19 -10.5 -37t-7.5 -25t-3 -15t1 -14.5
t9.5 -10.5t21.5 -4h37h67h81h80h64h36q23 0 34 12t2 38q-5 13 -9.5 30.5t-9.5 34.5q-5 19 -11 39h-368zM336 498v228q0 11 2.5 23t10 21.5t20.5 15.5t34 6h188q31 0 51.5 -14.5t20.5 -52.5v-227h-327z" />
    

    
    <glyph glyph-name="fangwu" unicode="&#58920;" d="M519.300286 847.481357L121.272268 449.458205l119.404027 0L240.676295 51.430187000000046l159.212667 0L399.888961 263.711715l212.282745 0L612.171706 51.430187000000046l159.207801 0L771.379508 449.458205 917.323439 449.458205 519.300286 847.481357zM519.300286 847.481357"  horiz-adv-x="1024" />

    
    <glyph glyph-name="webicon215" unicode="&#59022;" d="M512 160 128 576 896 576Z"  horiz-adv-x="1024" />

    
    <glyph glyph-name="webicon216" unicode="&#59024;" d="M512 576 128 160 896 160Z"  horiz-adv-x="1024" />

    
    <glyph glyph-name="shousuo2" unicode="&#59021;" d="M368.77312 476.9792l167.34208-223.1296 167.34208 223.1296L368.77312 476.9792z"  horiz-adv-x="1024" />

    
    <glyph glyph-name="shousuo1" unicode="&#59023;" d="M445.0304 208.31232l223.1296 167.3472L445.0304 542.99136 445.0304 208.31232z"  horiz-adv-x="1024" />

    
    <glyph glyph-name="fanghao" unicode="&#58921;" d="M1013.44 427.456L529.728 878.912c-9.92 9.28-25.344 9.28-35.264 0L10.496 427.456c-7.808-7.232-10.176-18.496-6.4-28.352 3.904-9.728 13.376-16.256 23.872-16.256l150.144 0 0-456.704c0-14.4 11.712-25.856 25.856-25.856l616 0c14.4 0 25.984 11.52 26.112 25.856L846.08 382.84799999999996l149.888 0c10.624 0 19.904 6.4 23.872 16.256C1023.68 409.088 1021.184 420.352 1013.44 427.456zM820.16 434.368c-14.528 0-25.856-11.648-25.856-25.728l0-456.704L229.696-48.063999999999965l0.128 456.704c0 14.144-11.52 25.728-25.856 25.728L93.568 434.368 512 824.64l418.496-390.272L820.16 434.368zM572.992 225.024l-30.016-92.992c-1.984-14.016-9.984-20.992-24-20.992s-20.992 6.976-20.992 20.992c0 8 1.984 16 6.016 24l20.992 68.992L413.952 225.024 386.944 144C384.96 142.01599999999996 384 139.00800000000004 384 134.976c-6.016-17.984-14.016-25.984-24-24-16.064 0-24 6.976-24 20.992-1.984 1.984-1.088 6.016 3.008 12.032 1.92 6.016 3.008 11.008 3.008 14.976l24 65.984L312 224.96000000000004c-20.032-1.984-28.992 4.992-27.008 20.992 0 12.032 7.936 19.008 24 20.992l68.992 0 41.984 123.008L365.952 389.952C345.984 388.032 336.96 395.008 338.944 411.008c0 12.032 7.936 19.008 24 20.992l72 0 30.016 92.992C468.992 537.024 476.992 544 488.96 546.048 502.976 544 510.976 536 512.96 522.048c-1.984-8-4.032-16-6.016-24L482.944 432l113.984 0 30.016 92.992L626.944 528c4.032 12.032 12.032 17.984 24 17.984 12.032-1.984 19.008-9.024 20.992-20.992-1.984-10.048-4.032-17.984-6.016-24L641.92 432l54.016 0c16-1.984 25.024-9.024 27.008-20.992-1.984-14.016-11.008-20.992-27.008-20.992L629.952 390.016 588.032 267.00800000000004l53.952 0c16-1.984 25.024-9.024 27.008-20.992-1.984-14.016-11.008-20.992-27.008-20.992L572.992 225.024zM582.016 390.016L470.976 390.016 428.992 267.00800000000004l110.976 0L582.016 390.016z"  horiz-adv-x="1024" />

    
    <glyph glyph-name="mendian" unicode="&#58919;" d="M254.891132 534.5224049999999c-50.26560201 0-95.065705 23.214552-124.40616199 59.46111699 1.347433-15.831315 2.418417-57.62938599 0-54.641688 5.44502201-63.97849801 59.01572601-114.23283801 124.40616199-114.23283799s118.960116 50.253316 124.406163 114.23283799c-2.418417-2.987697-1.347433 38.810373 0 54.641688-29.34045801-36.24554-74.14056-59.461116-124.406163-59.46111699zM901.73580601 589.4528290000001c-31.13840001-38.469419-72.721455-58.57545601-126.06997701-58.57545499-53.346473 0-100.895708 24.637753-132.034108 63.107172 1.31774-15.490361 2.076439-57.206521 0-54.641688 5.778809-67.903051 62.63413699-121.238261 132.034108-121.23826201s126.256323 53.33520999 132.035132 121.23826201c-2.075416-2.564833-7.282896 34.619611-5.96515499 50.10997099zM643.631721 593.98454599c-31.13942399-38.469419-78.688659-63.107172-132.03718-63.107172-53.346473 0-100.894684 24.637753-132.034108 63.107172 1.318764-15.490361 2.076439-57.206521 0-54.641688 5.779833-67.903051 62.63413699-121.238261 132.034108-121.23826199s126.256323 53.33520999 132.03718 121.23826199c-2.076439-2.564833-1.318764 39.151327 0 54.641688zM427.575536 257.98531401c-11.599597 0-21.001936-9.402339-21.00193601-21.00193602v-42.004896c0-11.598573 9.402339-21.001936 21.00193601-21.00193499s21.001936 9.404387 21.001935 21.00193499V236.98337799c0 11.599597-9.402339 21.001936-21.001935 21.00193602zM595.595117 257.98531401c-11.599597 0-21.001936-9.402339-21.00193501-21.00193602v-42.004896c0-11.598573 9.402339-21.001936 21.00193501-21.00193499s21.001936 9.404387 21.001936 21.00193499V236.98337799c0 11.599597-9.402339 21.001936-21.001936 21.00193602zM923.941831 536.462668L856.114547 739.963972a62.92492 62.92492 0 0 1-59.76623401 43.082023h-569.52597299a62.92492 62.92492 0 0 1-59.76623401-43.082023L99.22779801 536.462668c-6.789384-20.33538601-3.097253-42.240389 9.86513598-58.58774199 7.362759-9.284592 15.644968-17.530965 24.44833301-25.04321101v-404.870879c0-34.744525 28.263331-63.006831 63.006832-63.006831h630.072408c34.744525 0 63.006831 28.263331 63.00683099 63.006831V452.831715c8.80234199 7.512247 17.084551 15.758619 24.44833401 25.04321101 12.963412 16.34632899 16.655543 38.251332 9.866159 58.58774199z m-784.882846-13.291055l67.827284 203.502328a21.007055 21.007055 0 0 0 19.936071 14.367158h569.52597301a21.008079 21.008079 0 0 0 19.936071-14.367158l67.82728299-203.502328c2.23514199-6.726927 1.107844-14.080471-2.933431-19.18761101-6.23136601-7.854224-13.23576599-14.850433-20.795111-21.03982l-4.391444-3.30612499c-5.822836-4.384277-11.924168-8.22589499-18.229254-11.58526299-0.23447001-0.12388999-0.459725-0.26416201-0.695219-0.38702901a134.58563001 134.58563001 0 0 0-19.386244-8.311901c-0.530373-0.178156-1.082247-0.296927-1.613644-0.467915-5.630345-1.830707-11.401987-3.19349801-17.244276-4.26653-1.618763-0.294879-3.23445399-0.594877-4.867551-0.830371-6.47914601-0.94504601-13.027917-1.582927-19.677028-1.582927-43.472123 0-83.84085002 21.0347-109.646856 56.305502v106.51479c0 11.598573-9.394148 21.001936-21.00295899 21.001936s-21.001936-9.404387-21.001936-21.001936v-104.65234301c-25.747644-36.418577-66.815685-58.167949-111.04241101-58.16794899-43.84072199 0-84.55552199 21.395108-110.345146 57.23928499v113.45673301c0 11.598573-9.394148 21.001936-21.001936 21.001936-11.608812 0-21.001936-9.404387-21.00193499-21.001936v-113.45980501c-25.77221799-35.84315399-66.48599401-57.23621399-110.34514601-57.23621299-6.650135 0-13.19993001 0.638904-19.678052 1.582927-1.632073 0.23549401-3.245716 0.535492-4.86243099 0.830371-5.84331399 1.073032-11.615979 2.435823-17.24939601 4.26653-0.533444 0.170989-1.082247 0.290783-1.61261999 0.467915a134.74638 134.74638 0 0 0-19.38931601 8.313949c-0.23037401 0.12081799-0.452557 0.258019-0.681908 0.379862-6.308157 3.361416-12.41358599 7.20508099-18.238469 11.590382l-4.391444 3.30612499c-7.559345 6.189387-14.563745 13.185595-20.795111 21.03982-4.040251 5.10714-5.168573 12.460684-2.932408 19.18761101z m708.56448101-97.125762v-378.083991c0-11.578095-9.41462601-21.001936-21.00295901-21.001936H196.54912199c-11.58833401 0-21.001936 9.42486399-21.00193499 21.001936V426.045851c1.103748-0.502728 2.26688199-0.847777 3.378821-1.326956 4.328987-1.850161 8.667189-3.65834201 13.138497-5.158334 2.421489-0.820132 4.90748199-1.418081 7.361735-2.13070501 3.58769401-1.0331 7.14262401-2.146064 10.80199001-2.95390899 3.676772-0.818084 7.42624-1.32286 11.16034999-1.904427 2.62319399-0.40648199 5.202361-0.974739 7.851153-1.263475 6.487337-0.713648 13.040203-1.105796 19.651431-1.105796 50.393588 0 97.77183401 21.34084199 131.347081 58.187403 33.595725-36.846561 80.973971-58.187403 131.34708101-58.187403 50.393588 0 97.77183401 21.34084199 131.34708199 58.17716501 20.98452999-23.023085 47.36084-39.991937 76.495496-49.48233001a176.972435 176.972435 0 0 1 54.851585-8.694835c6.610204 0 13.16409401 0.392148 19.651431 1.105796 2.649815 0.28975999 5.22898201 0.85801601 7.851152 1.263475 3.73410999 0.581567 7.48357799 1.08736601 11.16035001 1.904427 3.65936599 0.80784599 7.214296 1.919785 10.80199099 2.95390901 2.455277 0.712624 4.940247 1.310573 7.361735 2.13070499 4.471307 1.499992 8.809509 3.308173 13.138497 5.158334 1.112963 0.47917799 2.275073 0.824228 3.37882101 1.326956z"  horiz-adv-x="1024" />

    
    <glyph glyph-name="danyuan" unicode="&#58896;" d="M854.85714313-27.634285309999996V864H169.14285687v-891.42857156l-68.57142843-0.20571375V-96h822.85714312v68.36571469h-68.57142843zM786.28571469-27.428571560000023H237.71428531V795.42857156h548.57142938v-822.85714312zM443.42857156 726.8571431299999H306.28571469v-68.57142844h137.14285687V726.8571431299999zM306.28571469 246.85714313000005v-137.14285782h137.14285687V246.85714313000005H306.28571469z m0 274.28571374v-137.14285687h137.14285687V521.1428568700001H306.28571469z m274.28571375-274.28571374v-137.14285782h137.14285687V246.85714313000005H580.57142844z m0 274.28571374v-137.14285687h137.14285687V521.1428568700001H580.57142844z m137.14285687 205.71428626H580.57142844v-68.57142844h137.14285687V726.8571431299999z"  horiz-adv-x="1024" />

    
    <glyph glyph-name="men" unicode="&#58933;" d="M761.344 776.704H226.816c-18.944 0-39.424-11.776-39.424-30.72V-25.600000000000023h614.4V747.52c0.512 18.944-22.016 29.184-40.448 29.184z m-537.6-768c-2.048 0-2.048 0 0 0L221.696 732.16c0 5.12 5.12 10.24 10.24 10.24h522.24c8.704 0 13.824-5.12 13.824-13.824v-720.384s0-1.536-1.536-1.536h-15.36V701.44c0 16.896-8.704 24.064-29.184 24.064H266.24c-18.944 0-27.136-8.704-27.136-24.064v-692.736h-15.36z m49.152 0V691.2H716.8v-682.496H272.896zM648.704 387.584c-16.896 0-32.256-13.824-32.256-32.256 0-16.896 13.824-32.256 32.256-32.256s32.256 13.824 32.256 32.256c0 16.896-13.824 32.256-32.256 32.256z"  horiz-adv-x="1024" />

    
    <glyph glyph-name="icon-test" unicode="&#58889;" d="M758.1875 102.75V735.5625H266V102.75H160.4375v-70.3125h703.125V102.75h-105.375z m-316.5 70.3125H371.375V243.375h70.3125v-70.3125z m0 175.6875H371.375v70.3125h70.3125v-70.3125z m0 175.875H371.375v70.3125h70.3125V524.625zM652.625 173.0625h-70.3125v421.875H652.625v-421.875z"  horiz-adv-x="1024" />

    
    <glyph glyph-name="addnode" unicode="&#58888;" d="M950.857143-128H365.714286a73.142857 73.142857 0 0 0-73.142857 73.142857V310.85714299999995H146.285714a73.142857 73.142857 0 0 0-73.142857 73.142857V749.714286a73.142857 73.142857 0 0 0 0 146.285714h512a73.142857 73.142857 0 0 0 0-146.285714H219.428571v-292.571429h73.142858V530.285714a73.142857 73.142857 0 0 0 73.142857 73.142857h585.142857a73.142857 73.142857 0 0 0 73.142857-73.142857v-585.142857a73.142857 73.142857 0 0 0-73.142857-73.142857z m-146.285714 438.857143h-73.142858V384a73.142857 73.142857 0 0 1-146.285714 0v-73.142857H512a73.142857 73.142857 0 0 1 0-146.285714h73.142857v-73.142858a73.142857 73.142857 0 0 1 146.285714 0v73.142858h73.142858a73.142857 73.142857 0 0 1 0 146.285714z"  horiz-adv-x="1024" />

    
    <glyph glyph-name="recyclebin" unicode="&#58903;" d="M113.777778 668.444444V725.333333a56.888889 56.888889 0 0 0 56.888889 56.888889h227.555555a56.888889 56.888889 0 0 0 0 113.777778h227.555556a56.888889 56.888889 0 0 0 0-113.777778h227.555555a56.888889 56.888889 0 0 0 56.888889-56.888889v-56.888889H113.777778z m739.555555-682.666666a113.777778 113.777778 0 0 0-113.777777-113.777778H284.444444a113.777778 113.777778 0 0 0-113.777777 113.777778V611.555556h682.666666v-625.777778zM455.111111 440.888889a56.888889 56.888889 0 0 1-113.777778 0v-341.333333a56.888889 56.888889 0 0 1 113.777778 0V440.888889z m227.555556 0a56.888889 56.888889 0 0 1-113.777778 0v-341.333333a56.888889 56.888889 0 0 1 113.777778 0V440.888889z"  horiz-adv-x="1024" />

    
    <glyph glyph-name="tableedit" unicode="&#58907;" d="M36.571429 786.285714a73.142857 73.142857 0 0 0 73.142857 73.142857h365.714285a73.142857 73.142857 0 1 0 0-146.285714h-292.571428v-658.285714h658.285714v292.571428a73.142857 73.142857 0 0 0 146.285714 0v-365.714285a73.142857 73.142857 0 0 0-73.142857-73.142857h-804.571428a73.142857 73.142857 0 0 0-73.142857 73.142857v804.571428z m503.076571-477.988571a73.142857 73.142857 0 0 0-103.424 103.424L849.993143 825.490286a73.142857 73.142857 0 0 0 103.424-103.424z"  horiz-adv-x="1024" />

    
    <glyph glyph-name="menjin" unicode="&#58929;" d="M819.8-85.20000000000005H204.2c-45.8 0-83.2 37.4-83.2 83.2V784c0 45.8 37.4 83.2 83.2 83.2H820c45.8 0 83.2-37.4 83.2-83.2v-786c-0.2-45.8-37.6-83.2-83.4-83.2zM204.2 847.2c-34.8 0-63.2-28.4-63.2-63.2v-786c0-34.8 28.4-63.2 63.2-63.2h615.6c34.8 0 63.2 28.4 63.4 63.2V784c0 34.8-28.4 63.2-63.2 63.2H204.2zM723.4 428.4H300.6c-48 0-87 39-87 87v150.4c0 48 39 87 87 87h422.6c48 0 87-39 87-87v-150.4c0.2-23-8.8-44.8-25.4-61.2-16.4-16.6-38.2-25.8-61.4-25.8zM300.6 732.8c-37 0-67-30-67-67v-150.4c0-37 30-67 67-67h422.8c17.8 0 34.6 7 47.2 19.8 12.6 12.8 19.6 29.4 19.6 47.2v150.4c0 37-30 67-67 67H300.6zM697.4 275.20000000000005c-28.4 0-51.4 23-51.4 51.4s23 51.4 51.4 51.4 51.4-23 51.4-51.4-23-51.4-51.4-51.4z m0 82.8c-17.4 0-31.4-14-31.4-31.4s14-31.4 31.4-31.4 31.4 14 31.4 31.4-14 31.4-31.4 31.4zM522.2 266.4c-28.4 0-51.4 23-51.4 51.4s23 51.4 51.4 51.4 51.4-23 51.4-51.4-23-51.4-51.4-51.4z m0 82.8c-17.4 0-31.4-14-31.4-31.4s14-31.4 31.4-31.4 31.4 14 31.4 31.4-14 31.4-31.4 31.4zM347.2 266.4c-28.4 0-51.4 23-51.4 51.4s23 51.4 51.4 51.4 51.4-23 51.4-51.4-23-51.4-51.4-51.4z m0 82.8c-17.4 0-31.4-14-31.4-31.4s14-31.4 31.4-31.4 31.4 14 31.4 31.4-14 31.4-31.4 31.4zM697.4 131.79999999999995c-28.4 0-51.4 23-51.4 51.4s23 51.4 51.4 51.4 51.4-23 51.4-51.4-23-51.4-51.4-51.4z m0 82.8c-17.4 0-31.4-14-31.4-31.4s14-31.4 31.4-31.4 31.4 14 31.4 31.4-14 31.4-31.4 31.4zM522.2 123.20000000000005c-28.4 0-51.4 23-51.4 51.4s23 51.4 51.4 51.4 51.4-23 51.4-51.4-23-51.4-51.4-51.4z m0 82.8c-17.4 0-31.4-14-31.4-31.4s14-31.4 31.4-31.4 31.4 14 31.4 31.4-14 31.4-31.4 31.4zM347.2 123.20000000000005c-28.4 0-51.4 23-51.4 51.4s23 51.4 51.4 51.4 51.4-23 51.4-51.4-23-51.4-51.4-51.4z m0 82.8c-17.4 0-31.4-14-31.4-31.4s14-31.4 31.4-31.4 31.4 14 31.4 31.4-14 31.4-31.4 31.4zM697.4-7.399999999999977c-28.4 0-51.4 23-51.4 51.4s23 51.4 51.4 51.4 51.4-23 51.4-51.4-23-51.4-51.4-51.4z m0 82.8c-17.4 0-31.4-14-31.4-31.4s14-31.4 31.4-31.4 31.4 14 31.4 31.4-14 31.4-31.4 31.4zM522.2-16.200000000000045c-28.4 0-51.4 23-51.4 51.4s23 51.4 51.4 51.4 51.4-23 51.4-51.4-23-51.4-51.4-51.4z m0 82.8c-17.4 0-31.4-14-31.4-31.4s14-31.4 31.4-31.4 31.4 14 31.4 31.4-14 31.4-31.4 31.4zM347.2-16.200000000000045c-28.4 0-51.4 23-51.4 51.4s23 51.4 51.4 51.4 51.4-23 51.4-51.4-23-51.4-51.4-51.4z m0 82.8c-17.4 0-31.4-14-31.4-31.4s14-31.4 31.4-31.4 31.4 14 31.4 31.4-14 31.4-31.4 31.4z"  horiz-adv-x="1024" />

    
    <glyph glyph-name="sushe" unicode="&#58924;" d="M869.2 51.9H154.8c-10.4 0-18.8 8.4-18.8 18.8s8.4 18.8 18.8 18.8h12.5v564c0 34.6 28.1 62.7 62.7 62.7h313.3c34.6 0 62.7-28.1 62.7-62.7v-125.3h188c34.6 0 62.7-28.1 62.7-62.7v-376h12.5c10.4 0 18.8-8.4 18.8-18.8s-8.4-18.8-18.8-18.8zM342.8 597.1h-87.7v-87.7h87.7v87.7z m0-178.6h-87.7v-87.7h87.7v87.7z m0-178.6h-87.7v-87.7h87.7v87.7z m175.5 357.2h-87.7v-87.7h87.7v87.7z m0-178.6h-87.7v-87.7h87.7v87.7z m0-178.6h-87.7v-87.7h87.7v87.7z m263.2 175.4h-87.7v-87.7h87.7v87.7z m0-175.4h-87.7v-87.7h87.7v87.7z"  horiz-adv-x="1024" />

    
    <glyph glyph-name="xiaoqutubiao" unicode="&#59200;" d="M680.75 580.87554932h239.06304932a14.06689453 14.06689453 0 0 0 14.06195068-14.06359864v-590.625a14.06689453 14.06689453 0 0 0-14.06195068-14.06195068H104.18695068A14.06689453 14.06689453 0 0 0 90.125-23.813049320000005v675a14.06689453 14.06689453 0 0 0 14.06195068 14.06359864H343.25v126.5625A14.06689453 14.06689453 0 0 0 357.31195068 805.875h309.37609864a14.06689453 14.06689453 0 0 0 14.06195068-14.06195068v-210.9375z m-196.87554932-590.625h56.25109864v84.375h-56.25109864v-84.375zM753.70141602 130.875h81.7300415a14.05041503 14.05041503 0 0 1 14.06359863 14.06195068 14.05041503 14.05041503 0 0 1-14.06359863 14.06359864h-81.7300415a14.06689453 14.06689453 0 0 1-14.06359863-14.06359864 14.06689453 14.06689453 0 0 1 14.06359863-14.06195068z m0 84.375h81.7300415a14.05041503 14.05041503 0 0 1 14.06359863 14.06195068 14.05041503 14.05041503 0 0 1-14.06359863 14.06359864h-81.7300415a14.06689453 14.06689453 0 0 1-14.06359863-14.06359864 14.06689453 14.06689453 0 0 1 14.06359863-14.06195068z m0 84.375h81.7300415a14.05041503 14.05041503 0 0 1 14.06359863 14.06195068 14.05041503 14.05041503 0 0 1-14.06359863 14.06359864h-81.7300415a14.06689453 14.06689453 0 0 1-14.06359863-14.06359864 14.06689453 14.06689453 0 0 1 14.06359863-14.06195068z m0 84.375h81.7300415a14.05041503 14.05041503 0 0 1 14.06359863 14.06195068 14.05041503 14.05041503 0 0 1-14.06359863 14.06359864h-81.7300415a14.06689453 14.06689453 0 0 1-14.06359863-14.06359864 14.06689453 14.06689453 0 0 1 14.06359863-14.06195068z m0 84.375h81.7300415a14.05041503 14.05041503 0 0 1 14.06359863 14.06195068 14.05041503 14.05041503 0 0 1-14.06359863 14.06359864h-81.7300415a14.06689453 14.06689453 0 0 1-14.06359863-14.06359864 14.06689453 14.06689453 0 0 1 14.06359863-14.06195068zM272.93695068 159.00054932H191.20690918a14.05041503 14.05041503 0 0 1-14.06359863-14.06359864 14.05041503 14.05041503 0 0 1 14.06359863-14.06195068h81.7300415a14.06689453 14.06689453 0 0 1 14.06359864 14.06195068 14.06689453 14.06689453 0 0 1-14.06359864 14.06359864z m0 84.375H191.20690918a14.05041503 14.05041503 0 0 1-14.06359863-14.06359864 14.05041503 14.05041503 0 0 1 14.06359863-14.06195068h81.7300415a14.06689453 14.06689453 0 0 1 14.06359864 14.06195068 14.06689453 14.06689453 0 0 1-14.06359864 14.06359864z m0 84.375H191.20690918a14.05041503 14.05041503 0 0 1-14.06359863-14.06359864 14.05041503 14.05041503 0 0 1 14.06359863-14.06195068h81.7300415a14.06689453 14.06689453 0 0 1 14.06359864 14.06195068 14.06689453 14.06689453 0 0 1-14.06359864 14.06359864z m0 84.375H191.20690918a14.05041503 14.05041503 0 0 1-14.06359863-14.06359864A14.05041503 14.05041503 0 0 1 191.20690918 384h81.7300415a14.06689453 14.06689453 0 0 1 14.06359864 14.06195068 14.06689453 14.06689453 0 0 1-14.06359864 14.06359864z m0 84.375H191.20690918a14.05041503 14.05041503 0 0 1-14.06359863-14.06359864 14.05041503 14.05041503 0 0 1 14.06359863-14.06195068h81.7300415a14.06689453 14.06689453 0 0 1 14.06359864 14.06195068 14.06689453 14.06689453 0 0 1-14.06359864 14.06359864z m0 84.375H191.20690918a14.05041503 14.05041503 0 0 1-14.06359863-14.06359864 14.05041503 14.05041503 0 0 1 14.06359863-14.06195068h81.7300415a14.06689453 14.06689453 0 0 1 14.06359864 14.06195068 14.06689453 14.06689453 0 0 1-14.06359864 14.06359864zM469.8125 187.12445068a14.06689453 14.06689453 0 0 1 14.06195068 14.06359864 14.06689453 14.06689453 0 0 1-14.06195068 14.06195068h-25.48059083a14.05041503 14.05041503 0 0 1-14.06359862-14.06195068 14.05041503 14.05041503 0 0 1 14.06359863-14.06359864H469.8125z m-25.49047852 84.375h25.48223878a14.05041503 14.05041503 0 0 1 14.06195068 14.06359864 14.05041503 14.05041503 0 0 1-14.06195068 14.06195068h-25.48223878a14.06689453 14.06689453 0 0 1-14.06195068-14.06195068 14.06689453 14.06689453 0 0 1 14.06195068-14.06359864z m0 84.375h25.48223878a14.05041503 14.05041503 0 0 1 14.06195068 14.06359864 14.05041503 14.05041503 0 0 1-14.06195068 14.06195068h-25.48223878a14.06689453 14.06689453 0 0 1-14.06195068-14.06195068 14.06689453 14.06689453 0 0 1 14.06195068-14.06359864z m0 84.375h25.48223878a14.05041503 14.05041503 0 0 1 14.06195068 14.06359864 14.05041503 14.05041503 0 0 1-14.06195068 14.06195068h-25.48223878a14.06689453 14.06689453 0 0 1-14.06195068-14.06195068 14.06689453 14.06689453 0 0 1 14.06195068-14.06359864z m0 84.375h25.48223878a14.05041503 14.05041503 0 0 1 14.06195068 14.06359864 14.05041503 14.05041503 0 0 1-14.06195068 14.06195068h-25.48223878a14.06689453 14.06689453 0 0 1-14.06195068-14.06195068 14.06689453 14.06689453 0 0 1 14.06195068-14.06359864z m0 84.375h25.48223878a14.05041503 14.05041503 0 0 1 14.06195068 14.06359864 14.05041503 14.05041503 0 0 1-14.06195068 14.06195068h-25.48223878a14.06689453 14.06689453 0 0 1-14.06195068-14.06195068 14.06689453 14.06689453 0 0 1 14.06195068-14.06359864z m0 84.375h25.48223878a14.05041503 14.05041503 0 0 1 14.06195068 14.06359864 14.05041503 14.05041503 0 0 1-14.06195068 14.06195068h-25.48223878a14.06689453 14.06689453 0 0 1-14.06195068-14.06195068 14.06689453 14.06689453 0 0 1 14.06195068-14.06359864z m112.50384522-506.25h25.48059082a14.05041503 14.05041503 0 0 1 14.06359863 14.06359864 14.05041503 14.05041503 0 0 1-14.06359863 14.06195068h-25.48059082a14.06689453 14.06689453 0 0 1-14.06195068-14.06195068 14.06689453 14.06689453 0 0 1 14.06195068-14.06359864z m25.48059082 84.375a14.05041503 14.05041503 0 0 1 14.06359863 14.06359864 14.05041503 14.05041503 0 0 1-14.06359863 14.06195068h-25.48059082a14.06689453 14.06689453 0 0 1-14.06195068-14.06195068 14.06689453 14.06689453 0 0 1 14.06195068-14.06359864h25.48059082z m-25.48059082 84.375h25.48059082a14.05041503 14.05041503 0 0 1 14.06359863 14.06359864 14.05041503 14.05041503 0 0 1-14.06359863 14.06195068h-25.48059082a14.06689453 14.06689453 0 0 1-14.06195068-14.06195068 14.06689453 14.06689453 0 0 1 14.06195068-14.06359864z m0 84.375h25.48059082a14.05041503 14.05041503 0 0 1 14.06359863 14.06359864 14.05041503 14.05041503 0 0 1-14.06359863 14.06195068h-25.48059082a14.06689453 14.06689453 0 0 1-14.06195068-14.06195068 14.06689453 14.06689453 0 0 1 14.06195068-14.06359864z m0 84.375h25.48059082a14.05041503 14.05041503 0 0 1 14.06359863 14.06359864 14.05041503 14.05041503 0 0 1-14.06359863 14.06195068h-25.48059082a14.06689453 14.06689453 0 0 1-14.06195068-14.06195068 14.06689453 14.06689453 0 0 1 14.06195068-14.06359864z m0 84.375h25.48059082a14.05041503 14.05041503 0 0 1 14.06359863 14.06359864 14.05041503 14.05041503 0 0 1-14.06359863 14.06195068h-25.48059082a14.06689453 14.06689453 0 0 1-14.06195068-14.06195068 14.06689453 14.06689453 0 0 1 14.06195068-14.06359864z m0 84.375h25.48059082a14.05041503 14.05041503 0 0 1 14.06359863 14.06359864 14.05041503 14.05041503 0 0 1-14.06359863 14.06195068h-25.48059082a14.06689453 14.06689453 0 0 1-14.06195068-14.06195068 14.06689453 14.06689453 0 0 1 14.06195068-14.06359864z"  horiz-adv-x="1024" />

    
    <glyph glyph-name="menjin1" unicode="&#58930;" d="M928.961058-62.60851200000002V705.312459c0 85.510209-25.425006 97.793693-108.428842 97.793693H204.84516c-82.958677 0-108.383682-12.283484-108.383683-97.793693v-767.920971H0.02258v-65.391488h1024.09032v65.391488h-95.151842z m-63.427034 0H159.888512V705.312459c0 29.850673 2.461213 32.402205 44.956648 32.402205h615.687056c45.001808 0 45.001808 0 45.001808-32.402205v-767.920971zM637.815391 345.72701199999995v63.652834a125.883131 125.883131 0 0 1-125.747651 125.747651 125.905711 125.905711 0 0 1-125.747652-125.747651v-63.652834a71.917089 71.917089 0 0 1-66.272106-71.57839v-144.308357a72.165469 72.165469 0 0 1 72.142889-72.142889h239.708578a72.188049 72.188049 0 0 1 72.165468 72.142889V274.14862200000005a71.917089 71.917089 0 0 1-66.249526 71.57839z m-45.159867 0.587078h-161.198148v63.065756c0 44.43731 36.173054 80.587784 80.587784 80.587784s80.587784-36.150474 80.587784-80.587784v-63.065756z"  horiz-adv-x="1024" />

    
    <glyph glyph-name="xiaoqu3" unicode="&#58925;" d="M208.471303 653.80083141h134.90998952v-101.04514452h-134.90998952v101.04514452z m202.36719363 0h134.91588112v-101.04514452h-134.91588112v101.04514452zM208.471303 485.16150337h134.90998952v-101.18801552h-134.90998952v101.18801552z m202.36719363 0h134.91588112v-101.18801552h-134.91588112v101.18801552z m337.23446917 0h67.6000751v-101.18801552h-67.6000751v101.18801552z m0-168.59219535h67.6000751v-101.18948838h-67.6000751v101.18948838z m-539.6016628 0h134.90998952v-101.18948838h-134.90998952v101.18948838z m202.36719363 0h134.91588112v-101.18948838h-134.91588112v101.18948838zM950.39449964 13.059758669999951V620.0729658H680.76010559V822.39449964H73.60550036v-809.33474097H39.87763475v-67.45425831h944.2447305v67.45425831h-33.72786561z m-809.33179516 0V754.94171423h472.10469049v-741.88048266H141.06270448z m539.556003 0V552.75568689h202.32153385v-539.69592822H680.61870748z"  horiz-adv-x="1024" />

    
    <glyph glyph-name="men1" unicode="&#58934;" d="M784.54236669 812.66905467l-0.04967248 0.04967261-0.04967278 0.04968278a66.44042611 66.44042611 0 0 1-46.9305399 19.53472749H282.12853068a66.39075351 66.39075351 0 0 1-46.9305399-19.53472749l-0.04967257-0.04968278-0.04968284-0.04967261a66.44042611 66.44042611 0 0 1-19.53472764-46.93053994v-754.03058113c0-18.20592186 7.47609905-34.83465431 19.53472764-46.93053965l0.04968284-0.04967281 0.04967257-0.04967254a66.44042611 66.44042611 0 0 1 46.9305399-19.53472754h455.37153543a66.41559486 66.41559486 0 0 1 46.93053978 19.53472754l0.04967264 0.04967254 0.04967263 0.04967281a66.44042611 66.44042611 0 0 1 19.53472757 46.93053965v754.03058113a66.31623957 66.31623957 0 0 1-19.52231204 46.93053994z m-33.25746496-800.96112107c0-3.82498419-1.51509097-7.26498267-3.96158633-9.69906268l-0.11177111-0.09934509a13.64823349 13.64823349 0 0 0-9.69906276-3.96158645H282.12853068c-3.82498419 0-7.26498267 1.51509097-9.69906266 3.96158645l-0.11177101 0.09934509a13.64823349 13.64823349 0 0 0-3.9615865 9.69906268v754.03058113c0 3.82498419 1.51509097 7.26498267 3.9615865 9.69906269l0.11177101 0.09935548c2.44649554 2.44649554 5.87407858 3.9615865 9.69906266 3.96158634h455.37153543c3.82498419 0 7.26498267-1.51509097 9.69906279-3.96158634l0.1117605-0.09935548c2.44649554-2.44649554 3.9615865-5.87407858 3.96158658-9.69906269v-754.03058113zM640.11204779 388.04640057m-40.65906001 0a40.65906022 40.65906022 0 1 1 81.31812024 0 40.65906022 40.65906022 0 1 1-81.31812024 0Z"  horiz-adv-x="1024" />

    
    <glyph glyph-name="men2" unicode="&#58935;" d="M815.592 828.517v-735.75H686.6v-153.94c-5.994 1.556-10 2.355-13.848 3.632-151.424 50.258-302.804 100.646-454.318 150.631-8.512 2.808-10.95 6.532-10.94 15.248 0.264 217.92 0.224 435.84 0.237 653.76v66.42l607.861-0.001z m-165.656-841.07c0.246 4.922 0.53 7.964 0.532 11.005 0.025 213.67-0.032 427.34 0.245 641.01 0.012 9.043-3.242 12.585-11.379 15.16-127.964 40.489-255.843 81.252-383.751 121.92-3.47 1.103-7.05 1.86-12.068 3.166v-12.896c0.001-210.981 0.055-421.962-0.181-632.943-0.01-8.757 2.597-12.472 11.099-15.267 96.526-31.734 192.884-63.985 289.302-96.051 34.868-11.596 69.778-23.069 106.2-35.104zM328.802 792.716c0.05-0.603 0.102-1.206 0.154-1.81 2.867-0.991 5.715-2.045 8.606-2.964 111.8-35.525 223.564-71.163 335.473-106.34 9.934-3.123 13.615-7.065 13.587-18.137-0.439-172.876-0.307-345.755-0.307-518.632v-15.698h93.36v663.58H328.801zM540.46 459.739h52.818v-34.787l-16.838-1.248v-128.53l16.602-1.537V259.1h-52.58c-0.002 66.87-0.002 133.44-0.002 200.638z"  horiz-adv-x="1024" />

    
    <glyph glyph-name="xiaoqu1" unicode="&#59201;" d="M675.84-107.51999999999998H61.44V465.92h286.72V875.52h327.68v-245.76h286.72v-737.28H675.84zM348.16 424.96H102.4v-491.52h245.76V424.96z m122.88-491.52h81.92V261.12h-81.92v-327.68z m163.84 696.32V834.56H389.12v-901.12h61.44V281.6h122.88v-348.16h61.44V629.76z m286.72-40.96H675.84v-655.36h245.76V588.8z m-61.44-143.36h-122.88v81.92h122.88v-81.92z m-20.48 61.44h-81.92v-40.96h81.92v40.96z m20.48-184.32h-122.88v81.92h122.88v-81.92z m-20.48 61.44h-81.92v-40.96h81.92v40.96z m20.48-184.32h-122.88v81.92h122.88v-81.92z m-20.48 61.44h-81.92v-40.96h81.92v40.96z m20.48-184.32h-122.88v81.92h122.88v-81.92z m-20.48 61.44h-81.92v-40.96h81.92v40.96zM450.56 588.8h122.88v-81.92h-122.88v81.92z m20.48-61.44h81.92v40.96h-81.92v-40.96zM450.56 773.12h122.88v-81.92h-122.88V773.12z m20.48-61.44h81.92V752.64h-81.92v-40.96z m-184.32-430.08H163.84v81.92h122.88v-81.92z m-20.48 61.44H184.32v-40.96h81.92v40.96z m20.48-184.32H163.84v81.92h122.88v-81.92z m-20.48 61.44H184.32v-40.96h81.92v40.96z m20.48-184.32H163.84v81.92h122.88v-81.92z m-20.48 61.44H184.32v-40.96h81.92v40.96z"  horiz-adv-x="1024" />

    
    <glyph glyph-name="shouqi" unicode="&#58893;" d="M512 831.8C264.7 831.8 64.2 631.3 64.2 384S264.7-63.8 512-63.8 959.8 136.7 959.8 384 759.3 831.8 512 831.8z m215.4-498.1L437.6 105.8c-11.7-9.2-25.7-13.7-39.5-13.7-18.9 0-37.7 8.4-50.3 24.4-21.8 27.8-17 68 10.7 89.8L584.3 384 358.5 561.6c-27.8 21.8-32.6 62.1-10.7 89.8 21.8 27.8 62.1 32.6 89.8 10.7l289.8-227.9c15.4-12.1 24.4-30.7 24.4-50.3s-9-38.1-24.4-50.2z"  horiz-adv-x="1024" />

    
    <glyph glyph-name="zhankai" unicode="&#58894;" d="M959.3 384C959.3 631.1 759 831.3 512 831.3 264.9 831.3 64.7 631.1 64.7 384S264.9-63.3 512-63.3c247.1 0 447.3 200.2 447.3 447.3zM461.8 168.9L234.1 458.3c-9.2 11.7-13.7 25.6-13.7 39.5 0 18.9 8.4 37.7 24.4 50.3 27.7 21.8 67.9 17 89.7-10.7L512 311.7l177.4 225.6c21.8 27.7 62 32.5 89.7 10.7 27.8-21.8 32.5-62 10.7-89.7L562.2 168.9a63.837 63.837 0 0 0-50.2-24.4c-19.6 0-38.1 8.9-50.2 24.4z"  horiz-adv-x="1024" />

    
    <glyph glyph-name="xiaoqu2" unicode="&#1858;" d="M302.26432-48.12800000000004h350.336V816.128H302.26432v-864.256z m298.59328 121.32352h-93.5936v94.0288h93.5936v-94.0288z m-174.17728 140.8v94.03392h93.58848v-94.03392H426.68032z m174.17728 140.83072h-93.5936V448.83456h93.5936v-94.00832zM426.68032 495.63136V589.65504h93.58848v-94.02368H426.68032zM507.264 730.4704h93.5936v-94.03392h-93.5936V730.4704z m-161.16736 0h93.57312v-94.03392H346.09664V730.4704z m0-281.63584h93.57312v-94.00832H346.09664V448.83456z m0-281.61024h93.57312v-94.0288H346.09664v94.0288zM42.96192-48.12800000000004h210.02752V542.8787199999999H42.96192V-48.12800000000004zM101.1968 496.47104h93.57312v-94.02368H101.1968V496.47104z m0-167.168h93.57312v-94.01856H101.1968v94.01856z m0-160.61952h93.57312v-94.03904H101.1968v94.03904z m842.36288 290.9184V571.92448h-50.95936V681.51808h-36.5824V783.47264h-30.72v-101.95456h-36.58752v-109.5936h-50.93888v-112.32256h-41.49248V-48.12800000000004h288.75776V459.60192h-41.47712z m-105.90208-443.16672h-93.57824v94.01856h93.57824v-94.01856z m0 288.3072h-93.57824V398.76096h93.57824v-94.01856z m109.84448-142.97088h-93.568v94.03392h93.568v-94.03392z"  horiz-adv-x="1027" />

    


  </font>
</defs>
</svg>
